Inicio   -   Ayuda   -   Contacto   -   ltimos Torrents

Torrents
Documentales842
Pelculas11256
Pelculas HD2068
Series1961
  Episodios22513
Series HD244
  Episodios2743
Juegos2689
  PC1736
Variados1521
  Deportes36
  Programas592
  Videoclips102
  Otros722
Música MP3 3525
Total Torrents57258

Informacin
Esta web no contiene ningn tipo de fichero almacenado.

Todos los archivos se comparten mediante el BitTorrent, un programa P2P de intercambio entre usuarios.



Descarga la ltima versin de uTorrent y baja a la mxima velocidad:
Ariana Grande (Ft.Nicki Minaj) - Side to Side
Total Descargas:  2.399 En Enero:  2.399

Fecha:  2017-05-02



Torrent:      Descargar         Tamao:  375,39 MB
Descripcin:

General

Format : MPEG-TS
File size : 375 MB
Duration : 3mn 48s
Overall bit rate mode : Variable
Overall bit rate : 13.8 Mbps

Video

Duration : 3mn 48s
Bit rate mode : Variable
Bit rate : 12.7 Mbps
Maximum bit rate : 24.0 Mbps
Width : 1 920 pixels
Height : 1 080 pixels
Display aspect ratio : 16:9
Frame rate : 29.970 (30000/1001) fps
Bits/(Pixel*Frame) : 0.204
Stream size : 346 MiB (92%)

Audio

Duration : 3mn 48s
Bit rate mode : Constant
Bit rate : 384 Kbps
Channel(s) : 6 channels
Channel positions : Front: L C R, Side: L R, LFE
Sampling rate : 48.0 KHz
Frame rate : 31.250 fps (1536 spf)
Stream size : 10.5 MiB (3%)
Language : English



Volver al ndice de Variados







Datos legales


08:38:22
computer