MejorTorrent : variados extend
Inicio   -   Ayuda   -   Contacto   -   últimos Torrents

Torrents
Documentales842
Películas11256
Películas HD2068
Series1961
  Episodios22513
Series HD244
  Episodios2743
Juegos2689
  PC1736
Variados1521
  Deportes36
  Programas592
  Videoclips102
  Otros722
Música MP3 3525
Total Torrents57258

Información
Esta web no contiene ningún tipo de fichero almacenado.

Todos los archivos se comparten mediante el BitTorrent, un programa P2P de intercambio entre usuarios.



Descarga la última versión de uTorrent y baja a la máxima velocidad:
Die 80er Chart Kult-Hits
Total Descargas:  2.693 En Julio:  2.693

Fecha:  2016-02-09



Torrent:      Descargar         Tamaño:  4,03 GB
Descripción:

Clipslist:

1.Richard Sanderson - "Reality"
2.Paul Young - "Come Back And Stay"
3.Wham! - "Wake My Up Before You GO-GO"
4.Cyndi Lauper - "Girls Just Want To Have Fun"
5.Bonnie Tyler - "Total Eclipse Of The Heart"
6.Jennifer Rush - "The Power Of Love"
7.Bangles - "Eternal Flame"
8.Cook Da Books - "Your Eyes"
9.Toto - "Africa"
10.Men At Work - "Down Under"
11.Don Johnson - "Heartbeat"
12.Cock Robin - "The Promise You Made"
13.The Weather Girls - "Its Raining Men"
14.Eighth Wonder - "I'm Not Scared"
15.Desireless - "Voyage, Voyage"
16.Munchener Freiheit - "Ohne Dich" (live)
17.Europe - "The Final Countdown"

***

Interpret: Various Artist
Name DVD: Die "80'er Chart" Kult-Hits
Genre: Pop Hits 80's
Jazyk: ENG
Subtitle: No
Menu/Bonus: Yes/No
Overal bitrate: 7425 Kb/s
Video: 720x576
Audio: 6/2 (AC3,PCM)
Label: 2004 (Sony Music)
DVD #: 989905 5
Time: 60:17 (m.s.)
Size: 4,02 GB
Source: DVD5 full (1:1)
Cover: No

MediaInfo:

General
Complete name : C:\VA - Die 80´er Chart Kult-Hits (2004)
[DVD5]\VIDEO_TS\VTS_01_1.VOB
Format : MPEG-PS
File size : 1 024 MiB
Duration : 19mn 16s
Overall bit rate mode : Variable
Overall bit rate : 7 425 Kbps
Video #224
ID : 224 (0xE0)
Format : MPEG Video
Format version : Version 2
Format profile : Main@Main
Format settings, BVOP : Yes
Format settings, Matrix : Custom
Format settings, GOP : M=3, N=12
Duration : 19mn 16s
Bit rate mode : Variable
Bit rate : 5 293 Kbps
Maximum bit rate : 9 800 Kbps
Width : 720 pixels
Height : 576 pixels
Display aspect ratio : 4:3
Frame rate : 25.000 fps
Standard : PAL
Color space : YUV
Chroma subsampling : 4:2:0
Bit depth : 8 bits
Scan type : Interlaced
Scan order : Top Field First
Compression mode : Lossy
Bits/(Pixel*Frame) : 0.511
Stream size : 730 MiB (71%)
Audio #189-129
ID : 189 (0xBD)-129 (0x81)
Format : AC-3
Format/Info : Audio Coding 3
Mode extension : CM (complete main)
Format settings, Endianness : Big
Muxing mode : DVD-Video
Duration : 19mn 16s
Bit rate mode : Constant
Bit rate : 448 Kbps
Channel(s) : 6 channels
Channel positions : Front: L C R, Side: L R, LFE
Sampling rate : 48.0 KHz
Bit depth : 16 bits
Compression mode : Lossy
Stream size : 61.8 MiB (6%)
Audio #189-160
ID : 189 (0xBD)-160 (0xA0)
Format : PCM
Format settings, Endianness : Big
Format settings, Sign : Signed
Muxing mode : DVD-Video
Duration : 19mn 16s
Bit rate mode : Constant
Bit rate : 1 536 Kbps
Channel(s) : 2 channels
Sampling rate : 48.0 KHz
Bit depth : 16 bits
Stream size : 212 MiB (21%)



Volver al índice de Variados







Datos legales


20:32:38
computer