Inicio   -   Ayuda   -   Contacto   -   ltimos Torrents

Torrents
Documentales842
Pelculas11256
Pelculas HD2068
Series1961
  Episodios22513
Series HD244
  Episodios2743
Juegos2689
  PC1736
Variados1521
  Deportes36
  Programas592
  Videoclips102
  Otros722
Música MP3 3525
Total Torrents57258

Informacin
Esta web no contiene ningn tipo de fichero almacenado.

Todos los archivos se comparten mediante el BitTorrent, un programa P2P de intercambio entre usuarios.



Descarga la ltima versin de uTorrent y baja a la mxima velocidad:
Meghan Trainor - Better When Im Dancin
Total Descargas:  2.213 En Enero:  1.395

Fecha:  2015-12-06



Torrent:      Descargar         Tamao:  81,23 MB
Descripcin:

General
Format : MPEG-4
Format profile : Base Media / Version 2
Codec ID : mp42
File size : 81.2 MiB
Duration : 2mn 56s
Overall bit rate : 3 862 Kbps

Video
ID : 1
Format : AVC
Format/Info : Advanced Video Codec
Format profile : [email protected]
Format settings, CABAC : Yes
Format settings, ReFrames : 9 frames
Codec ID : avc1
Codec ID/Info : Advanced Video Coding
Duration : 2mn 56s
Bit rate : 3 729 Kbps
Width : 1 280 pixels
Height : 720 pixels
Display aspect ratio : 16:9
Frame rate mode : Variable
Frame rate : 23.976 fps
Color space : YUV
Chroma subsampling : 4:2:0
Bit depth : 8 bits
Scan type : Progressive
Bits/(Pixel*Frame) : 0.169
Stream size : 78.4 MiB (97%)

Audio
ID : 2
Format : AAC
Format/Info : Advanced Audio Codec
Format profile : HE-AAC / LC
Codec ID : 40
Duration : 2mn 56s
Bit rate mode : Variable
Bit rate : 128 Kbps
Channel(s) : 2 channels
Channel positions : Front: L R
Sampling rate : 44.1 KHz / 22.05 KHz
Compression mode : Lossy
Stream size : 2.69 MiB (3%)
Title : Stereo / Stereo
Language : English



Volver al ndice de Variados







Datos legales


06:05:59
computer