Inicio   -   Ayuda   -   Contacto   -   ltimos Torrents

Torrents
Documentales842
Pelculas11256
Pelculas HD2068
Series1961
  Episodios22513
Series HD244
  Episodios2743
Juegos2689
  PC1736
Variados1521
  Deportes36
  Programas592
  Videoclips102
  Otros722
Música MP3 3525
Total Torrents57258

Informacin
Esta web no contiene ningn tipo de fichero almacenado.

Todos los archivos se comparten mediante el BitTorrent, un programa P2P de intercambio entre usuarios.



Descarga la ltima versin de uTorrent y baja a la mxima velocidad:
One Direction - Perfect
Total Descargas:  2.049 En Enero:  1.284

Fecha:  2015-11-25



Torrent:      Descargar         Tamao:  79,49 MB
Descripcin:

General
Format : MPEG-4
Codec ID : mp42
File size : 78.3 MiB
Duration : 3mn 48s
Overall bit rate : 2 870 Kbps

Video
ID : 1
Format : AVC
Format/Info : Advanced Video Codec
Format profile : [email protected]
Duration : 3mn 48s
Bit rate : 2 736 Kbps
Width : 1 280 pixels
Height : 720 pixels
Display aspect ratio : 16:9
Frame rate mode : Variable
Frame rate : 23.976 fps
Color space : YUV
Chroma subsampling : 4:2:0
Bit depth : 8 bits
Scan type : Progressive
Stream size : 74.7 MiB (95%)

Audio
ID : 2
Format : AAC
Format/Info : Advanced Audio Codec
Format profile : HE-AAC / LC
Duration : 3mn 48s
Bit rate : 128 Kbps
Channel(s) : 2 channels
Sampling rate : 48.0 KHz / 24.0 KHz
Stream size : 3.49 MiB (4%)
Title : HE-AAC / HE-AAC
Language : English

Subtitles
Type : ASS
Type : Soft Subbed
Language : English
Color : Blue Borders (Styled)



Volver al ndice de Variados







Datos legales


15:39:52
computer