Inicio   -   Ayuda   -   Contacto   -   ltimos Torrents

Torrents
Documentales842
Pelculas11256
Pelculas HD2068
Series1961
  Episodios22513
Series HD244
  Episodios2743
Juegos2689
  PC1736
Variados1521
  Deportes36
  Programas592
  Videoclips102
  Otros722
Música MP3 3525
Total Torrents57258

Informacin
Esta web no contiene ningn tipo de fichero almacenado.

Todos los archivos se comparten mediante el BitTorrent, un programa P2P de intercambio entre usuarios.



Descarga la ltima versin de uTorrent y baja a la mxima velocidad:
Shawn Mendes - Stitches
Total Descargas:  4.211 En Enero:  3.733

Fecha:  2015-11-25



Torrent:      Descargar         Tamao:  29,40 MB
Descripcin:

General
Format : MPEG-4
Codec ID : mp42
File size : 28.2 MiB
Duration : 3mn 59s
Overall bit rate : 987 Kbps

Video
Format : AVC
Format/Info : Advanced Video Codec
Format profile : [email protected]
Duration : 3mn 59s
Bit rate : 854 Kbps
Width : 1 280 pixels
Height : 540 pixels
Display aspect ratio : 2.40:1
Frame rate : 23.976 fps
Bit depth : 8 bits
Scan type : Progressive
Stream size : 24.4 MiB (86%)

Audio
Format : AAC
Format/Info : Advanced Audio Codec
Format profile : HE-AAC / LC
Duration : 3mn 59s
Bit rate mode : Variable
Bit rate : 128 Kbps
Channel(s) : 2 channels
Stream size : 3.66 MiB (13%)
Title : Stereo / Stereo
Language : English

Subtitles
Language : English
Format : ASS
Type : Soft Subbed



Volver al ndice de Variados







Datos legales


11:00:47
computer